<?xml version="1.0" standalone="no"?>
<!DOCTYPE svg PUBLIC "-//W3C//DTD SVG 1.1//EN" "http://www.w3.org/Graphics/SVG/1.1/DTD/svg11.dtd" >
<svg xmlns="http://www.w3.org/2000/svg" xmlns:xlink="http://www.w3.org/1999/xlink" version="1.1">
<metadata></metadata>
<defs>
<font id="orbitlight" horiz-adv-x="1605" >
<font-face units-per-em="2048" ascent="1409" descent="-639" />
<missing-glyph horiz-adv-x="1024" />
<glyph horiz-adv-x="0" />
<glyph horiz-adv-x="682" />
<glyph unicode=" "  horiz-adv-x="1024" />
<glyph unicode="&#x09;" horiz-adv-x="1024" />
<glyph unicode="&#xa0;" horiz-adv-x="1024" />
<glyph unicode="!" horiz-adv-x="344" d="M113 0h118v121h-118v-121zM133 334h78v1075h-78v-1075z" />
<glyph unicode="&#x22;" horiz-adv-x="722" d="M184 1016h78v393h-78v-393zM465 1016h74v393h-74v-393z" />
<glyph unicode="#" horiz-adv-x="1529" d="M20 379l13 78h184l96 495h-184l12 78h187l71 379h78l-74 -379h664l74 379h78l-74 -379h188l-8 -78h-192l-97 -495h195l-12 -78h-195l-74 -379h-78l72 379h-661l-74 -379h-78l72 379h-183zM295 457h663l97 495h-664z" />
<glyph unicode="$" horiz-adv-x="1462" d="M113 934v61q0 105 63.5 165.5t171.5 60.5h983v-80h-981q-81 0 -120.5 -35t-39.5 -113v-53q0 -68 43 -102.5t95 -40.5l798 -107q103 -14 163.5 -70t60.5 -143v-61q0 -105 -64 -165.5t-172 -60.5h-983v80h981q81 0 120.5 35t39.5 113v53q0 68 -42.5 102.5t-94.5 40.5 l-799 107q-103 14 -163 70t-60 143zM496 0l389 1409h82l-389 -1409h-82z" />
<glyph unicode="%" horiz-adv-x="1847" d="M82 1016v127q0 109 77.5 187.5t186.5 78.5h1024l-815 -1409h-92l766 1327h-563q77 -77 77 -184v-127q0 -109 -77.5 -186.5t-186.5 -77.5h-133q-109 0 -186.5 77.5t-77.5 186.5zM162 1034q0 -85 59.5 -145t145.5 -60h92q86 0 145.5 60t59.5 145v88q0 84 -57 144.5 t-140 60.5h-100q-86 0 -145.5 -59.5t-59.5 -145.5v-88zM1104 264v131q0 109 77.5 185.5t186.5 76.5h133q109 0 186.5 -76.5t77.5 -185.5v-131q0 -109 -77.5 -186.5t-186.5 -77.5h-133q-109 0 -186.5 77.5t-77.5 186.5zM1184 283q0 -85 59.5 -145t145.5 -60h92q86 0 145.5 60 t59.5 145v92q0 86 -59.5 145.5t-145.5 59.5h-92q-86 0 -145.5 -59.5t-59.5 -145.5v-92z" />
<glyph unicode="&#x26;" horiz-adv-x="1568" d="M205 336v74q0 116 42.5 185.5t129.5 109.5q-87 41 -129.5 110.5t-42.5 185.5v72q0 176 95.5 256t283.5 80h508v-82h-508q-156 0 -227.5 -56t-71.5 -200v-72q0 -144 71.5 -200t227.5 -56h655v209h78v-209h190v-77h-188v-330q0 -175 -95.5 -255.5t-281.5 -80.5h-358 q-187 0 -283 80.5t-96 255.5zM285 336q0 -144 71.5 -200t227.5 -56h356q156 0 227.5 56t71.5 200v330h-655q-156 0 -227.5 -56t-71.5 -200v-74z" />
<glyph unicode="'" horiz-adv-x="444" d="M184 1016v393h76v-393h-76z" />
<glyph unicode="(" horiz-adv-x="858" d="M215 106v1197q0 119 58.5 220.5t160 160.5t221.5 59h121v-80h-121q-151 0 -256.5 -105.5t-105.5 -254.5v-1197q0 -149 106.5 -255.5t255.5 -106.5h121v-78h-121q-183 0 -311.5 128.5t-128.5 311.5z" />
<glyph unicode=")" horiz-adv-x="858" d="M82 -256h125q148 0 253 106.5t105 255.5v1197q0 149 -105 254.5t-253 105.5h-125v80h125q118 0 218.5 -59t159 -160.5t58.5 -220.5v-1197q0 -183 -128 -311.5t-308 -128.5h-125v78z" />
<glyph unicode="*" horiz-adv-x="712" d="M51 1157l217 -47l11 33l-203 90zM141 879l60 -52l125 183l-27 20zM319 1409l19 -217h37l18 217h-74zM387 1010l27 20l157 -151l-59 -52zM434 1143l203 90l25 -76l-218 -47z" />
<glyph unicode="+" horiz-adv-x="892" d="M113 666v77h297v295h73v-295h297v-77h-297v-295h-73v295h-297z" />
<glyph unicode="," horiz-adv-x="440" d="M143 -295q45 126 45 258v135h88v-135q0 -137 -61 -287q-58 22 -72 29z" />
<glyph unicode="-" horiz-adv-x="727" d="M113 666v77h501v-77h-501z" />
<glyph unicode="." horiz-adv-x="387" d="M143 0v96h101v-96h-101z" />
<glyph unicode="/" horiz-adv-x="925" d="M10 0l813 1409h92l-813 -1409h-92z" />
<glyph unicode="0" horiz-adv-x="1691" d="M164 571v267q0 155 76.5 286.5t208 208t286.5 76.5h221q116 0 222 -45.5t182.5 -121.5t122 -182t45.5 -222v-267q0 -116 -45.5 -222t-122 -182t-182.5 -121.5t-222 -45.5h-221q-155 0 -286.5 76.5t-208 208t-76.5 286.5zM244 571q0 -134 65.5 -247t178.5 -178.5 t247 -65.5h221q134 0 247 65.5t179 178.5t66 247v267q0 205 -144 348t-348 143h-221q-204 0 -347.5 -143t-143.5 -348v-267z" />
<glyph unicode="1" horiz-adv-x="944" d="M61 1110v82l555 215q2 2 11 2q13 0 22 -6q19 -11 19 -31v-1372h-78v1315z" />
<glyph unicode="2" horiz-adv-x="1261" d="M113 0h1036v80h-959v330q0 54 21 94.5t57.5 63.5t63 34t59.5 19l481 131q125 35 200 111t75 179v52q0 130 -92.5 222.5t-223.5 92.5h-718v-80h718q98 0 167 -68.5t69 -166.5v-52q0 -156 -199 -208l-483 -136q-133 -37 -202.5 -110.5t-69.5 -177.5v-410z" />
<glyph unicode="3" horiz-adv-x="1425" d="M180 0v80h719q156 0 227.5 56t71.5 200v74q0 144 -71.5 200t-227.5 56h-532v77h491q156 0 227.5 56t71.5 200v74q0 144 -71.5 200t-227.5 56h-678v80h678q188 0 283.5 -80t95.5 -256v-72q0 -109 -37.5 -177t-112.5 -109q191 -67 191 -307v-72q0 -175 -96 -255.5 t-283 -80.5h-719z" />
<glyph unicode="4" horiz-adv-x="1601" d="M164 408q0 -48 36 -78.5t87 -30.5h876v-299h78v299h299v78h-299v1032h-78v-1032h-907q-7 0 -10 8l338 1024h-86z" />
<glyph unicode="5" horiz-adv-x="1310" d="M115 0v80h714q134 0 210.5 76t76.5 209v90q0 135 -77 211.5t-212 76.5h-712v666h1028v-80h-950v-506h634q172 0 270.5 -98t100.5 -270v-86q0 -171 -99 -270t-270 -99h-714z" />
<glyph unicode="6" horiz-adv-x="1591" d="M205 440v533q0 180 128.5 308t309.5 128h700v-80h-700q-151 0 -255.5 -103.5t-104.5 -254.5v-148h839q127 0 216 -89.5t89 -217.5v-207q0 -128 -89 -217.5t-216 -89.5h-479q-181 0 -309.5 128t-128.5 310zM283 440q0 -149 105.5 -253.5t254.5 -104.5h479q95 0 161.5 66 t66.5 161v207q0 95 -66.5 161t-161.5 66h-839v-303z" />
<glyph unicode="7" horiz-adv-x="1261" d="M61 1329v80h1020q35 0 67 -29t32 -67v-135l-682 -1178h-88l694 1194v80q0 20 -4 31.5t-18 16.5t-27 6t-43 1h-951z" />
<glyph unicode="8" horiz-adv-x="1527" d="M154 336v72q0 241 190 307q-75 41 -112 109t-37 177v72q0 177 95.5 256.5t282.5 79.5h381q188 0 283.5 -80t95.5 -256v-72q0 -109 -37 -177t-112 -109q190 -66 190 -307v-72q0 -175 -96 -255.5t-283 -80.5h-463q-187 0 -282.5 80.5t-95.5 255.5zM233 336 q0 -144 71.5 -200t227.5 -56h463q156 0 227.5 56t71.5 200v74q0 144 -71.5 200t-227.5 56h-463q-156 0 -227.5 -56t-71.5 -200v-74zM274 999q0 -144 71.5 -200t227.5 -56h381q156 0 227.5 56t71.5 200v74q0 144 -71.5 200t-227.5 56h-381q-156 0 -227.5 -56t-71.5 -200v-74z " />
<glyph unicode="9" horiz-adv-x="1591" d="M164 891v211q0 128 89 217.5t216 89.5h479q183 0 310.5 -127t127.5 -309v-535q0 -181 -128 -309.5t-310 -128.5h-700v80h700q151 0 256 104t105 254v146h-840q-127 0 -216 89.5t-89 217.5zM242 891q0 -93 65 -160t158 -67h844v309q0 149 -105.5 252.5t-255.5 103.5h-479 q-95 0 -161 -66t-66 -161v-211z" />
<glyph unicode=":" horiz-adv-x="405" d="M143 0v121h119v-121h-119zM143 834v116h119v-116h-119z" />
<glyph unicode=";" horiz-adv-x="440" d="M143 -295q45 126 45 258v158h88v-158q0 -137 -61 -287q-58 22 -72 29zM158 834v116h118v-116h-118z" />
<glyph unicode="&#x3c;" horiz-adv-x="1024" d="M82 705q0 -27 27 -39l782 -326v86l-688 279l688 278v86l-782 -326q-27 -12 -27 -38z" />
<glyph unicode="=" horiz-adv-x="892" d="M113 496v77h667v-77h-667zM113 831v78h667v-78h-667z" />
<glyph unicode="&#x3e;" horiz-adv-x="1024" d="M133 340v86l688 279l-688 278v86l782 -326q27 -12 27 -38q0 -27 -27 -39z" />
<glyph unicode="?" horiz-adv-x="1331" d="M61 1329h791q99 0 168.5 -68.5t69.5 -166.5v-72q0 -54 -22.5 -96t-58 -65t-66.5 -35t-60 -17l-269 -45q-118 -20 -193 -102t-75 -187v-141h76v141q0 53 23 95t59 64.5t67 34.5t60 17l270 47q122 22 194 101.5t72 187.5v72q0 130 -92.5 222.5t-222.5 92.5h-791v-80zM315 0 v121h119v-121h-119z" />
<glyph unicode="@" horiz-adv-x="1759" d="M164 393v623q0 180 106.5 286.5t286.5 106.5h604q181 0 287 -106.5t106 -286.5v-422q0 -99 -70 -168.5t-167 -69.5h-670q-43 0 -74.5 30.5t-31.5 74.5v487q0 44 31.5 74.5t74.5 30.5h428q43 0 75 -30.5t32 -74.5v-514h135q66 0 113 47t47 113v422q0 152 -81.5 232.5 t-234.5 80.5h-604q-152 0 -232.5 -80.5t-80.5 -232.5v-623q0 -152 80.5 -232.5t232.5 -80.5h997v-80h-997q-181 0 -287 106.5t-106 286.5zM621 446q0 -12 12 -12h461q7 0 10 8v521q0 12 -12 12h-459q-12 0 -12 -10v-519z" />
<glyph unicode="A" horiz-adv-x="1617" d="M82 0h90l143 367h988l143 -367h90l-489 1237q-10 25 -17 41t-24.5 43.5t-36 44t-47.5 30t-62 13.5h-102q-33 0 -62 -13.5t-47.5 -30t-36 -44t-24.5 -43.5t-17 -41zM348 444l299 762q30 73 53.5 98t57.5 25h102q34 0 57.5 -25t53.5 -98l299 -762h-922z" />
<glyph unicode="B" horiz-adv-x="1759" d="M215 0v1409h1012q188 0 283.5 -80t95.5 -256v-72q0 -116 -42.5 -185.5t-129.5 -110.5q87 -40 129.5 -109.5t42.5 -185.5v-74q0 -175 -96 -255.5t-283 -80.5h-1012zM295 80h932q156 0 227.5 56t71.5 200v74q0 144 -71.5 200t-227.5 56h-932v-586zM295 743h932 q156 0 227.5 56t71.5 200v74q0 144 -71.5 200t-227.5 56h-932v-586z" />
<glyph unicode="C" horiz-adv-x="1585" d="M205 438v533q0 181 128.5 309.5t309.5 128.5h778v-80h-778q-151 0 -256.5 -104.5t-105.5 -253.5v-533q0 -149 106 -253.5t256 -104.5h778v-80h-778q-181 0 -309.5 129t-128.5 309z" />
<glyph unicode="D" horiz-adv-x="1800" d="M215 0v1409h971q182 0 311 -128.5t129 -309.5v-533q0 -180 -129.5 -309t-310.5 -129h-971zM295 80h891q149 0 254.5 104.5t105.5 253.5v533q0 149 -105.5 253.5t-254.5 104.5h-891v-1249z" />
<glyph unicode="E" horiz-adv-x="1624" d="M205 281q0 -124 78.5 -202.5t203.5 -78.5h963v80h-963q-95 0 -149.5 54t-54.5 151v381h1101v77h-1101v381q0 96 54.5 150.5t149.5 54.5h963v80h-963q-125 0 -203.5 -78.5t-78.5 -202.5v-847z" />
<glyph unicode="F" horiz-adv-x="1517" d="M205 0v1102q0 127 89.5 217t215.5 90h905v-80h-905q-93 0 -160 -66t-67 -161v-359h1065v-77h-1065v-666h-78z" />
<glyph unicode="G" horiz-adv-x="1810" d="M205 438v533q0 182 128 310t312 128h971v-80h-971q-151 0 -257.5 -104.5t-106.5 -253.5v-533q0 -150 107 -254t257 -104h895v586h-536v77h612v-743h-971q-121 0 -222.5 59t-159.5 160t-58 219z" />
<glyph unicode="H" horiz-adv-x="1804" d="M215 0v1409h80v-666h1216v666h78v-1409h-78v666h-1216v-666h-80z" />
<glyph unicode="I" horiz-adv-x="546" d="M236 0v1409h75v-1409h-75z" />
<glyph unicode="J" horiz-adv-x="1314" d="M61 0v80h672q151 0 244.5 93.5t93.5 244.5v991h80v-991q0 -182 -118.5 -300t-299.5 -118h-672z" />
<glyph unicode="K" horiz-adv-x="1597" d="M215 0h76v666h598q19 0 33.5 -1.5t27 -7.5t19.5 -9t18.5 -16.5t16 -19.5t19 -27.5t21.5 -31.5l386 -553h98l-467 668q-17 24 -17 39t15 36l477 666h-92l-412 -578q-27 -37 -40.5 -51.5t-37 -25.5t-57.5 -11h-606v666h-76v-1409z" />
<glyph unicode="L" horiz-adv-x="1363" d="M205 238v1171h78v-1171q0 -66 46.5 -112t112.5 -46h871v-80h-871q-99 0 -168 69.5t-69 168.5z" />
<glyph unicode="M" horiz-adv-x="2050" d="M215 0h72v1253l710 -1044q15 -19 33 -19t33 19l711 1044v-1253h71v1372q0 15 -13.5 26t-29.5 11q-18 0 -26 -14l-746 -1102l-745 1102q-8 14 -27 14q-16 0 -29.5 -11t-13.5 -26v-1372z" />
<glyph unicode="N" horiz-adv-x="1806" d="M215 0v1372q0 16 12.5 26.5t28.5 10.5q17 0 31 -14l1224 -1260v1274h80v-1372q0 -17 -10.5 -27t-24.5 -10q-18 0 -34 16l-1227 1256v-1272h-80z" />
<glyph unicode="O" horiz-adv-x="1908" d="M205 438v533q0 181 128.5 309.5t309.5 128.5h623q182 0 310 -128.5t128 -309.5v-533q0 -180 -128.5 -309t-309.5 -129h-623q-181 0 -309.5 129t-128.5 309zM281 438q0 -149 106 -253.5t256 -104.5h623q150 0 256 104.5t106 253.5v533q0 149 -105.5 253.5t-256.5 104.5 h-623q-151 0 -256.5 -104.5t-105.5 -253.5v-533z" />
<glyph unicode="P" horiz-adv-x="1681" d="M215 0v1409h1059q127 0 216 -89.5t89 -217.5v-260q0 -126 -90 -216.5t-215 -90.5h-981v-535h-78zM293 614h981q91 0 159 68.5t68 161.5v260q0 94 -67.5 159.5t-159.5 65.5h-981v-715z" />
<glyph unicode="Q" horiz-adv-x="1910" d="M205 438v533q0 181 128.5 309.5t309.5 128.5h625q182 0 310 -128.5t128 -309.5v-533q0 -180 -128.5 -309t-309.5 -129h-625q-181 0 -309.5 129t-128.5 309zM281 438q0 -149 106 -253.5t256 -104.5h625q150 0 256 104.5t106 253.5v533q0 149 -105.5 253.5t-256.5 104.5 h-625q-151 0 -256.5 -104.5t-105.5 -253.5v-533zM610 -238v-96l197 111q59 33 94 33q44 0 100 -33l635 -361v97l-561 315q-48 27 -68 38t-51 21.5t-57 10.5q-51 0 -133 -48z" />
<glyph unicode="R" horiz-adv-x="1699" d="M215 0h78v545h754l397 -545h92l-395 545h88q124 0 204 79t80 203v297q0 123 -80.5 204t-203.5 81h-1014v-1409zM293 625v704h936q95 0 150 -54t55 -151v-290q0 -98 -55.5 -153.5t-149.5 -55.5h-936z" />
<glyph unicode="S" horiz-adv-x="1556" d="M113 997v138q0 128 81 201t214 73h968v-80h-968q-101 0 -158 -48.5t-57 -145.5v-134q0 -159 202 -196l772 -141q126 -27 201.5 -94t75.5 -175v-121q0 -128 -81 -201t-214 -73h-969v80h969q101 0 158 48.5t57 145.5v117q0 160 -203 197l-774 143q-124 23 -199 90t-75 176z " />
<glyph unicode="T" horiz-adv-x="1554" d="M72 1341v68h1411v-68h-668v-1341h-76v1341h-667z" />
<glyph unicode="U" horiz-adv-x="1781" d="M184 438q0 -180 129 -309t312 -129h532q183 0 311.5 129t128.5 309v971h-79v-971q0 -149 -105.5 -253.5t-255.5 -104.5h-532q-150 0 -255.5 104.5t-105.5 253.5v971h-80v-971z" />
<glyph unicode="V" horiz-adv-x="1597" d="M72 1409l489 -1235q11 -27 17 -41t24 -43.5t35.5 -46t47 -30t63.5 -13.5h102q25 0 47 7.5t37.5 16.5t31.5 27t24.5 30t19.5 34.5t14.5 30.5t11.5 28l490 1235h-92l-473 -1206q-29 -75 -55 -99t-56 -24h-102q-30 0 -56 24t-55 99l-473 1206h-92z" />
<glyph unicode="W" horiz-adv-x="2215" d="M31 1409h86l385 -1268l569 1221q9 22 37 22t37 -22l569 -1221l385 1268h86l-428 -1376q-4 -15 -15 -24t-22 -9q-24 0 -37 29l-575 1237l-576 -1237q-13 -29 -36 -29q-11 0 -22 9t-15 24z" />
<glyph unicode="X" horiz-adv-x="1445" d="M31 1409h110l582 -645l582 645h110l-639 -704l633 -705h-106l-580 641l-580 -641h-106l633 705z" />
<glyph unicode="Y" horiz-adv-x="1544" d="M31 1411l491 -706q48 -74 72 -105q25 -25 55 -43q35 -18 76 -18h8v-539h78v539h8q72 0 129 61q22 25 74 105l491 706h-90l-471 -672q-47 -71 -76 -96t-57 -25h-96h2q-28 0 -57 25t-76 96l-471 672h-90z" />
<glyph unicode="Z" horiz-adv-x="1636" d="M113 1341v68h1372q15 0 26 -13t11 -28q0 -16 -11 -27l-1294 -1273h1307v-68h-1372q-14 0 -25.5 13t-11.5 28t10 25l1292 1275h-1304z" />
<glyph unicode="[" horiz-adv-x="776" d="M184 -334v2077h377v-80h-299v-1919h299v-78h-377z" />
<glyph unicode="\" horiz-adv-x="925" d="M10 1409l813 -1409h92l-813 1409h-92z" />
<glyph unicode="]" horiz-adv-x="776" d="M215 -256v-78h377v2077h-377v-80h299v-1919h-299z" />
<glyph unicode="^" horiz-adv-x="1314" d="M369 756h86l202 526l203 -526h86l-252 626q-10 27 -35 27h-4q-24 0 -34 -27z" />
<glyph unicode="_" horiz-adv-x="1075" d="M102 -111h871v-77h-871v77z" />
<glyph unicode="`" d="M696 1806h82l131 -235h-82z" />
<glyph unicode="a" horiz-adv-x="1474" d="M82 0l418 1061q10 25 17 40.5t24.5 43.5t35.5 44.5t47 30t62 13.5h102q33 0 62 -13.5t47.5 -30t36 -44t24.5 -43.5t17 -41l418 -1061h-93l-126 322h-875l-125 -322h-92zM330 397h815l-248 631q-28 73 -52 99t-57 26h-102q-33 0 -56 -26t-52 -99z" />
<glyph unicode="b" horiz-adv-x="1638" d="M215 0h891q77 0 133 7.5t104.5 27t78.5 52.5t46.5 84.5t16.5 123.5v67q0 59 -10.5 99.5t-35 69.5t-51.5 46.5t-75 40.5q47 22 74.5 39.5t52 46t35 69t10.5 99.5v66q0 88 -24.5 147t-75.5 91t-117 44.5t-162 12.5h-891v-1233zM295 80v495h811q59 0 97.5 -3t80.5 -15.5 t66 -35t39.5 -63t15.5 -98.5v-65q0 -42 -6.5 -74.5t-17.5 -55.5t-31.5 -38.5t-42 -24.5t-56 -14t-66 -6.5t-79.5 -1.5h-811zM295 657v496h811q56 0 91.5 -2t72.5 -9.5t58 -21.5t39 -37.5t25 -59.5t7 -85v-66q0 -58 -17 -99t-41.5 -63t-66.5 -34.5t-78.5 -15.5t-89.5 -3h-811 z" />
<glyph unicode="c" horiz-adv-x="1495" d="M205 418v397q0 182 117.5 300t300.5 118h708v-80h-708q-152 0 -246 -93.5t-94 -244.5v-397q0 -151 94.5 -244.5t245.5 -93.5h708v-80h-708q-183 0 -300.5 118t-117.5 300z" />
<glyph unicode="d" horiz-adv-x="1667" d="M215 0h862q180 0 298 118.5t118 299.5v397q0 181 -118 299.5t-298 118.5h-862v-1233zM293 80v1073h784q151 0 244.5 -93.5t93.5 -244.5v-397q0 -151 -93.5 -244.5t-244.5 -93.5h-784z" />
<glyph unicode="e" horiz-adv-x="1529" d="M205 285v663q0 125 79 205t203 80h869v-80h-869q-95 0 -149.5 -54.5t-54.5 -150.5v-293h1007v-77h-1007v-293q0 -99 54 -152t150 -53h869v-80h-869q-125 0 -203.5 79.5t-78.5 205.5z" />
<glyph unicode="f" horiz-adv-x="1460" d="M205 0v948q0 125 79 205t203 80h871v-80h-871q-95 0 -149.5 -54.5t-54.5 -150.5v-295h1007v-78h-1007v-575h-78z" />
<glyph unicode="g" horiz-adv-x="1675" d="M205 418v397q0 182 117.5 300t298.5 118h860v-80h-860q-152 0 -247 -93.5t-95 -244.5v-397q0 -153 95 -245.5t247 -92.5h786v495h-563v78h637v-653h-860q-181 0 -298.5 118t-117.5 300z" />
<glyph unicode="h" horiz-adv-x="1619" d="M215 0h80v578h1032v-578h78v1233h-78v-578h-1032v578h-80v-1233z" />
<glyph unicode="i" horiz-adv-x="546" d="M236 0v1233h75v-1233h-75z" />
<glyph unicode="j" horiz-adv-x="1314" d="M61 0v80h672q151 0 244.5 93.5t93.5 244.5v815h80v-815q0 -182 -118.5 -300t-299.5 -118h-672z" />
<glyph unicode="k" horiz-adv-x="1533" d="M215 0v1233h76v-578h598q22 0 39 3.5t27.5 6.5t23.5 16.5t18 19.5t22 31t25 36l332 465h97l-412 -580q-17 -24 -17 -37q0 -12 17 -36l412 -580h-97l-332 465q-9 12 -22.5 31.5t-19 27t-16 20t-18 16.5t-19.5 9.5t-26.5 7t-33.5 1.5h-598v-578h-76z" />
<glyph unicode="l" horiz-adv-x="1363" d="M205 238v995h78v-995q0 -66 46.5 -112t112.5 -46h871v-80h-871q-99 0 -168 69.5t-69 168.5z" />
<glyph unicode="m" horiz-adv-x="1871" d="M215 0v1194q0 17 11.5 28t27.5 11q18 0 31 -16l651 -953l651 953q13 16 31 16q16 0 27.5 -11t11.5 -28v-1194h-72v1075l-616 -895q-14 -18 -33 -18t-33 18l-616 895v-1075h-72z" />
<glyph unicode="n" horiz-adv-x="1800" d="M215 0v1194q0 18 11.5 28.5t27.5 10.5t33 -14l1220 -1094v1108h78v-1196q0 -18 -9 -27.5t-22 -9.5q-20 0 -36 16l-1223 1078v-1094h-80z" />
<glyph unicode="o" horiz-adv-x="1810" d="M205 418q0 -182 117.5 -300t300.5 -118h565q183 0 300.5 118t117.5 300v397q0 182 -117.5 300t-300.5 118h-565q-183 0 -300.5 -118t-117.5 -300v-397zM283 418v397q0 151 94.5 244.5t245.5 93.5h565q151 0 245.5 -93.5t94.5 -244.5v-397q0 -151 -94.5 -244.5 t-245.5 -93.5h-565q-151 0 -245.5 93.5t-94.5 244.5z" />
<glyph unicode="p" horiz-adv-x="1464" d="M215 0v1233h862q125 0 205 -80.5t80 -204.5v-178q0 -124 -80.5 -203.5t-204.5 -79.5h-784v-487h-78zM293 567h784q94 0 149.5 55.5t55.5 153.5v172q0 96 -55.5 150.5t-149.5 54.5h-784v-586z" />
<glyph unicode="q" horiz-adv-x="1732" d="M205 426q0 -182 117.5 -300t300.5 -118h487q183 0 300.5 118t117.5 300v397q0 182 -117.5 300t-300.5 118h-487q-183 0 -300.5 -118t-117.5 -300v-397zM283 426v397q0 151 94.5 244.5t245.5 93.5h487q151 0 245.5 -93.5t94.5 -244.5v-397q0 -151 -94.5 -244.5 t-245.5 -93.5h-487q-151 0 -245.5 93.5t-94.5 244.5zM610 -229v-97l197 111q59 33 94 33q44 0 100 -33l447 -262v96l-373 217q-48 27 -68 38t-51 21.5t-57 10.5q-53 0 -133 -47z" />
<glyph unicode="r" horiz-adv-x="1566" d="M215 0h78v487h643l346 -487h92l-344 487h88q124 0 204.5 79.5t80.5 203.5v178q0 123 -81 204t-204 81h-903v-1233zM293 567v586h825q95 0 150 -54t55 -151v-172q0 -99 -56 -157q-51 -53 -132 -53q-8 0 -17 1h-825z" />
<glyph unicode="s" horiz-adv-x="1335" d="M113 903v55q0 128 81 201.5t214 73.5h784v-80h-784q-101 0 -158 -49t-57 -146v-51q0 -43 15.5 -77t35.5 -53t52 -34t51.5 -20.5t47.5 -11.5l553 -117q275 -58 275 -264v-56q0 -128 -81 -201t-214 -73h-803v80h803q101 0 158 48.5t57 145.5v52q0 31 -8.5 57t-19.5 44 t-31.5 33.5t-35 23.5t-39.5 16t-35.5 10.5l-31.5 7.5l-555 119q-274 58 -274 266z" />
<glyph unicode="t" horiz-adv-x="1368" d="M72 1163v68h1224v-68h-573v-1163h-78v1163h-573z" />
<glyph unicode="u" d="M184 418q0 -182 117.5 -300t298.5 -118h406q181 0 298 118t117 300v815h-75v-815q0 -151 -94.5 -244.5t-245.5 -93.5h-406q-151 0 -245.5 93.5t-94.5 244.5v815h-76v-815z" />
<glyph unicode="v" horiz-adv-x="1527" d="M72 1233h86l444 -1032q33 -76 56.5 -98.5t54.5 -22.5h102q31 0 54.5 22.5t56.5 98.5l444 1032h86l-459 -1067q-36 -79 -63 -110q-48 -56 -119 -56h-102q-31 0 -58 12t-43 24.5t-35 41.5t-24 38.5t-19 41.5q-3 5 -4 8z" />
<glyph unicode="w" horiz-adv-x="1945" d="M31 1233h86l327 -1092l492 1071q10 23 37 23t37 -23l491 -1071l328 1092h86l-371 -1200q-10 -33 -37 -33q-24 0 -37 29l-497 1087l-498 -1087q-13 -29 -37 -29q-27 0 -37 33z" />
<glyph unicode="x" horiz-adv-x="1282" d="M31 0h108l502 553l502 -553h108l-559 616l547 617h-109l-489 -557l-489 557h-109l547 -617z" />
<glyph unicode="y" horiz-adv-x="1282" d="M31 1233h90l342 -600q42 -72 70 -96.5t59 -24.5h98q29 0 58.5 25.5t70.5 95.5l342 600h90l-360 -635q-1 -2 -11.5 -19.5t-14.5 -24t-15.5 -23.5t-19 -25.5t-20.5 -22t-25 -21t-27.5 -15.5t-32.5 -11.5t-35 -3.5h-10v-432h-78v432h-10q-18 0 -35 3.5t-32.5 11.5 t-27.5 15.5t-25 21t-20.5 22t-19 25.5t-15.5 23.5t-14.5 24t-11.5 19.5z" />
<glyph unicode="z" horiz-adv-x="1445" d="M113 41q0 15 10 25l1106 1099h-1116v68h1183q15 0 26 -13t11 -28q0 -17 -10 -27l-1108 -1097h1112v-68h-1177q-14 0 -25.5 13t-11.5 28z" />
<glyph unicode="{" horiz-adv-x="1179" d="M215 696v9q0 10 9.5 22t21.5 18l293 119v439q0 182 128.5 311t309.5 129h121v-80h-121q-151 0 -256 -105.5t-105 -254.5v-482l-292 -121l292 -120v-482q0 -150 105 -255t256 -105h121v-80h-121q-181 0 -309.5 129t-128.5 311v439l-293 118q-12 6 -21.5 18.5t-9.5 22.5z " />
<glyph unicode="|" horiz-adv-x="548" d="M236 -338v2085h77v-2085h-77z" />
<glyph unicode="}" horiz-adv-x="1179" d="M82 -262v-80h121q181 0 309.5 129t128.5 311v439l293 118q12 6 21.5 18.5t9.5 22.5v9q0 10 -9.5 22t-21.5 18l-293 119v439q0 182 -128.5 311t-309.5 129h-121v-80h121q150 0 255 -105t105 -255v-482l293 -121l-293 -120v-482q0 -150 -105 -255t-255 -105h-121z" />
<glyph unicode="~" horiz-adv-x="1886" d="M205 412l43 106q26 64 48.5 108t56.5 89.5t77 68.5t96 23h217q77 0 141 -56.5t85 -121.5q28 -83 73.5 -129.5t98.5 -46.5h219q41 0 88 37.5t76 115.5l57 156h100l-43 -107q-21 -51 -38 -87t-43 -77t-53 -66.5t-64 -42.5t-80 -17h-215q-84 0 -142 53t-88 125 q-39 91 -74 133.5t-96 42.5h-219q-41 0 -88 -37t-76 -115l-57 -155h-100z" />
<glyph unicode="&#xa1;" horiz-adv-x="344" d="M113 848h118v121h-118v-121zM133 -440h78v1075h-78v-1075z" />
<glyph unicode="&#xa2;" horiz-adv-x="1495" d="M205 522q0 -156 94 -245t244 -89h96l-51 -188h82l51 188h702v82h-680l240 871h440v80h-417l53 188h-82l-53 -188h-381q-150 0 -244 -89t-94 -245v-365zM283 537v337q0 129 72.5 198t193.5 69h354l-241 -871h-113q-121 0 -193.5 69t-72.5 198z" />
<glyph unicode="&#xa3;" horiz-adv-x="1556" d="M113 0v80h168v586h-168v77h168v228q0 182 127 310t307 128h667v-80h-667q-149 0 -254 -104.5t-105 -253.5v-228h607v-77h-607v-586h1026v-80h-1269z" />
<glyph unicode="&#xa5;" horiz-adv-x="1556" d="M31 1411l491 -706q2 -2 22 -32t38 -55h-342v-79h493v-148h-493v-78h493v-313h78v313h492v78h-492v148h492v79h-334q30 34 67 87l490 706h-90l-471 -672q-60 -75 -87.5 -98t-56.5 -23h-96q-28 0 -57 25t-76 96l-471 672h-90z" />
<glyph unicode="&#xa6;" horiz-adv-x="303" d="M113 -311h77v929h-77v-929zM113 795h77v929h-77v-929z" />
<glyph unicode="&#xa7;" horiz-adv-x="1085" d="M113 1174q0 -80 32.5 -127.5t96.5 -75.5q-58 -32 -92.5 -97.5t-34.5 -154.5q0 -50 14.5 -87.5t36 -61.5t60.5 -43t73.5 -29.5t89.5 -22.5l301 -67q28 -6 47.5 -11t51.5 -19t52.5 -30.5t36 -45t15.5 -64.5v-5q0 -71 -40.5 -112t-121.5 -41h-592v-80h592q46 0 85 10 t76.5 33.5t59 72t21.5 117.5v7q0 78 -32.5 122.5t-96.5 73.5q59 33 93 99t34 155q0 61 -19.5 104t-61.5 69.5t-83.5 41t-110.5 29.5l-301 67q-202 43 -202 175v4q0 71 40 110t121 39h592v80h-592q-241 0 -241 -229v-6zM195 723q0 49 10 83t27 57t49.5 33.5t67.5 14 t91.5 -3.5t111.5 -18t136 -29q203 -43 203 -174q0 -57 -12 -95t-41 -59t-64 -29.5t-96.5 -3t-123.5 16.5t-157 33q-202 43 -202 174z" />
<glyph unicode="&#xa8;" horiz-adv-x="1611" d="M547 1632v121h119v-121h-119zM946 1632v121h119v-121h-119z" />
<glyph unicode="&#xa9;" horiz-adv-x="1839" d="M215 438v533q0 182 127.5 310t310.5 128h533q182 0 310 -128.5t128 -309.5v-533q0 -180 -128.5 -309t-309.5 -129h-533q-182 0 -310 128.5t-128 309.5zM293 438q0 -149 106 -253.5t254 -104.5h533q149 0 254.5 104.5t105.5 253.5v533q0 149 -105.5 253.5t-254.5 104.5 h-533q-148 0 -254 -104.5t-106 -253.5v-533zM588 578q0 -108 65 -170t170 -62h430v82h-417q-170 0 -170 172v209q0 172 170 172h417v82h-430q-105 0 -170 -62t-65 -170v-253z" />
<glyph unicode="&#xaa;" horiz-adv-x="958" d="M113 705h69l66 174h463l65 -174h70l-240 614q-12 33 -38 61.5t-64 28.5h-49q-38 0 -64.5 -28.5t-38.5 -61.5zM283 936l145 399h102l146 -399h-393z" />
<glyph unicode="&#xab;" horiz-adv-x="1927" d="M82 575q0 27 27 39l782 326v-86l-670 -279l670 -278v-86l-782 326q-27 12 -27 38zM944 575q0 27 27 39l782 326v-86l-670 -279l670 -278v-86l-782 326q-27 12 -27 38z" />
<glyph unicode="&#xac;" horiz-adv-x="1826" d="M215 0v1409h1397v-1409h-1397zM293 80h1241v1249h-1241v-1249z" />
<glyph unicode="&#xad;" horiz-adv-x="727" d="M113 666v77h501v-77h-501z" />
<glyph unicode="&#xae;" horiz-adv-x="1028" d="M205 995v217q0 80 60 139.5t143 59.5h213q83 0 142.5 -59.5t59.5 -139.5v-217q0 -80 -59.5 -139t-142.5 -59h-213q-83 0 -143 59t-60 139zM281 995q0 -51 36.5 -88t90.5 -37h213q53 0 90 37t37 88v217q0 52 -37 88.5t-90 36.5h-213q-54 0 -90.5 -36.5t-36.5 -88.5v-217z M360 952v314h222q38 0 65 -24.5t27 -61.5v-23q0 -22 -31 -61q31 -34 31 -68v-76h-64v76q0 41 -45 41h-143v-117h-62zM422 1133h160q28 0 28 24v23q0 24 -28 24h-160v-71z" />
<glyph unicode="&#xaf;" d="M524 1649v77h559v-77h-559z" />
<glyph unicode="&#xb0;" horiz-adv-x="1032" d="M154 969q0 -109 77.5 -186.5t184.5 -77.5h198h2q108 0 185.5 77.5t77.5 186.5v178q0 108 -78 185t-187 77h-198q-108 0 -185 -77t-77 -185v-178zM229 987v139q0 86 60 145.5t145 59.5h164q85 0 145 -59.5t60 -145.5v-139q0 -85 -60 -145t-145 -60h-164q-85 0 -145 60 t-60 145z" />
<glyph unicode="&#xb1;" horiz-adv-x="925" d="M102 227v76h721v-76h-721zM102 856h322v-334h78v334h321v78h-321v309h-78v-309h-322v-78z" />
<glyph unicode="&#xb2;" horiz-adv-x="741" d="M113 756h516v63h-455v103q0 67 72 84l243 65q64 18 102 58t38 94v22q0 69 -46.5 116.5t-113.5 47.5h-356v-63h356q42 0 70 -28.5t28 -72.5v-22q0 -36 -20 -56.5t-47 -27.5l-248 -68q-63 -18 -101 -56t-38 -91v-168z" />
<glyph unicode="&#xb3;" horiz-adv-x="743" d="M113 762v63h358q41 0 68.5 26.5t27.5 68.5v38q0 40 -28 68.5t-68 28.5h-270v63h256q40 0 67 27t27 67v41q0 42 -27 68.5t-67 26.5h-344v63h344q66 0 110.5 -46t44.5 -112v-41q0 -54 -45 -116q64 -74 64 -138v-38q0 -64 -47.5 -111t-112.5 -47h-358z" />
<glyph unicode="&#xb4;" horiz-adv-x="1611" d="M692 1571h82l131 235h-82z" />
<glyph unicode="&#xb5;" horiz-adv-x="1568" d="M205 295v72q0 59 10.5 101t34.5 71.5t52.5 49t74.5 40.5q-90 43 -131 102.5t-41 173.5v33q0 72 16.5 123.5t46.5 84.5t78.5 52.5t104.5 27t133 7.5h508v-80h-508q-82 0 -132 -7.5t-91 -30.5t-58.5 -68.5t-17.5 -118.5v-13q0 -245 299 -245h655v170h78v-170h190v-80h-188 v-275q0 -177 -76.5 -246t-259.5 -69h-399q-96 0 -162 12.5t-117 44.5t-75.5 91t-24.5 147zM285 305q0 -73 17.5 -118.5t58.5 -68.5t91 -30.5t132 -7.5h397q70 0 114.5 9t79 34t49.5 71.5t15 120.5v275h-655q-150 0 -224.5 -57.5t-74.5 -176.5v-51z" />
<glyph unicode="&#xb6;" horiz-adv-x="1595" d="M102 838q0 -126 90 -214.5t216 -88.5h522v-535h80v535h290v-535h80v1409h-972q-127 0 -216.5 -89.5t-89.5 -217.5v-264zM180 844v258q0 96 66.5 161.5t161.5 65.5h522v-715h-522q-91 0 -159.5 68.5t-68.5 161.5zM1010 614v715h290v-715h-290z" />
<glyph unicode="&#xb7;" horiz-adv-x="466" d="M174 651v121h119v-121h-119z" />
<glyph unicode="&#xb8;" d="M586 -332v-78h239q193 0 193 148v31q0 147 -223 147v125h-88v-205h118q54 0 84.5 -20t30.5 -56v-16q0 -76 -121 -76h-233z" />
<glyph unicode="&#xb9;" horiz-adv-x="526" d="M113 1241v72l249 96q4 2 11 2q15 0 28 -11.5t13 -25.5v-616h-66v573z" />
<glyph unicode="&#xba;" horiz-adv-x="991" d="M113 926v262q0 92 63.5 156.5t155.5 64.5h327q92 0 156 -64.5t64 -156.5v-262q0 -91 -64 -156t-156 -65h-327q-92 0 -155.5 65t-63.5 156zM174 926q0 -66 46 -112t112 -46h327q66 0 112 46t46 112v262q0 67 -46 112.5t-112 45.5h-327q-66 0 -112 -45.5t-46 -112.5v-262z " />
<glyph unicode="&#xbb;" horiz-adv-x="1927" d="M174 211l782 326q27 12 27 38q0 27 -27 39l-782 326v-86l670 -279l-670 -278v-86zM1036 211l783 326q26 11 26 38q0 28 -26 39l-783 326v-86l670 -279l-670 -278v-86z" />
<glyph unicode="&#xbc;" horiz-adv-x="1869" d="M113 1241v72l249 96q4 2 11 2q15 0 28 -11.5t13 -25.5v-616h-66v573zM381 0l809 1409h80l-815 -1409h-74zM1090 221q0 11 2 15l149 415h66l-150 -430h395v430h64v-430h141v-61h-141v-160h-62v160h-391q-25 0 -49 18.5t-24 42.5z" />
<glyph unicode="&#xbd;" horiz-adv-x="1753" d="M113 1241v72l249 96q4 2 11 2q15 0 28 -11.5t13 -25.5v-616h-66v573zM383 0h74l815 1409h-80zM1124 0h516v63h-454v105q0 40 19.5 57t51.5 25l244 65q64 18 101.5 57.5t37.5 94.5v22q0 69 -46 116.5t-113 47.5h-357v-63h357q42 0 70 -28.5t28 -72.5v-22q0 -65 -68 -84 l-247 -68q-64 -18 -102 -56.5t-38 -90.5v-168z" />
<glyph unicode="&#xbe;" horiz-adv-x="2017" d="M113 760v63h358q41 0 68.5 26.5t27.5 68.5v38q0 43 -27.5 70t-68.5 27h-270v63h256q94 0 94 94v41q0 42 -27 68.5t-67 26.5h-344v63h344q66 0 110.5 -46t44.5 -112v-41q0 -30 -13 -64.5t-40 -55.5q36 -23 54 -60.5t18 -73.5v-38q0 -64 -47.5 -111t-112.5 -47h-358zM530 0 l809 1409h80l-817 -1409h-72zM1237 223q0 9 2 13l150 415h65l-149 -430h395v430h63v-430h142v-61h-142v-160h-61v160h-391q-25 0 -49.5 19.5t-24.5 43.5z" />
<glyph unicode="&#xbf;" horiz-adv-x="1331" d="M164 -53v-72q0 -131 92 -223t223 -92h791v80h-791q-98 0 -167.5 68.5t-69.5 166.5v72q0 54 22.5 96t58 65t66.5 35t60 17l268 45q118 20 193 102t75 187v141h-76v-141q0 -53 -23 -95t-59 -64.5t-67 -34.5t-60 -17l-270 -47q-122 -22 -194 -101.5t-72 -187.5zM897 848v121 h119v-121h-119z" />
<glyph unicode="&#xc0;" horiz-adv-x="1617" d="M82 0h90l143 367h988l143 -367h90l-489 1237q-10 25 -17 41t-24.5 43.5t-36 44t-47.5 30t-62 13.5h-102q-33 0 -62 -13.5t-47.5 -30t-36 -44t-24.5 -43.5t-17 -41zM348 444l299 762q30 73 53.5 98t57.5 25h102q34 0 57.5 -25t53.5 -98l299 -762h-922zM639 1806h82 l131 -235h-82z" />
<glyph unicode="&#xc1;" horiz-adv-x="1617" d="M82 0h90l143 367h988l143 -367h90l-489 1237q-10 25 -17 41t-24.5 43.5t-36 44t-47.5 30t-62 13.5h-102q-33 0 -62 -13.5t-47.5 -30t-36 -44t-24.5 -43.5t-17 -41zM348 444l299 762q30 73 53.5 98t57.5 25h102q34 0 57.5 -25t53.5 -98l299 -762h-922zM766 1571h82 l131 235h-82z" />
<glyph unicode="&#xc2;" horiz-adv-x="1617" d="M82 0h90l143 367h988l143 -367h90l-489 1237q-10 25 -17 41t-24.5 43.5t-36 44t-47.5 30t-62 13.5h-102q-33 0 -62 -13.5t-47.5 -30t-36 -44t-24.5 -43.5t-17 -41zM348 444l299 762q30 73 53.5 98t57.5 25h102q34 0 57.5 -25t53.5 -98l299 -762h-922zM588 1526l170 291 q17 30 51 30t51 -30l170 -291h-69l-152 258l-152 -258h-69z" />
<glyph unicode="&#xc3;" horiz-adv-x="1617" d="M82 0h90l143 367h988l143 -367h90l-489 1237q-10 25 -17 41t-24.5 43.5t-36 44t-47.5 30t-62 13.5h-102q-33 0 -62 -13.5t-47.5 -30t-36 -44t-24.5 -43.5t-17 -41zM348 444l299 762q30 73 53.5 98t57.5 25h102q34 0 57.5 -25t53.5 -98l299 -762h-922zM444 1591l31 76 q15 35 25 54.5t27.5 43.5t40.5 34.5t53 10.5h100q32 0 57.5 -17t36.5 -34t23 -43q29 -65 73 -65h62q54 0 74 59l30 82h92l-30 -76q-15 -35 -25 -54.5t-27.5 -43.5t-40.5 -34.5t-53 -10.5h-100q-25 0 -44.5 8t-33.5 24.5t-21.5 28.5t-17.5 33q-30 66 -74 66h-61 q-54 0 -74 -60l-30 -82h-93z" />
<glyph unicode="&#xc4;" horiz-adv-x="1617" d="M82 0h90l143 367h988l143 -367h90l-489 1237q-10 25 -17 41t-24.5 43.5t-36 44t-47.5 30t-62 13.5h-102q-33 0 -62 -13.5t-47.5 -30t-36 -44t-24.5 -43.5t-17 -41zM348 444l299 762q30 73 53.5 98t57.5 25h102q34 0 57.5 -25t53.5 -98l299 -762h-922zM551 1624v121h119 v-121h-119zM950 1624v121h117v-121h-117z" />
<glyph unicode="&#xc5;" horiz-adv-x="1617" d="M82 0l489 1237q10 25 17 41t24.5 43.5t36 44t47.5 30t62 13.5h102q33 0 62 -13.5t47.5 -30t36 -44t24.5 -43.5t17 -41l489 -1237h-90l-143 367h-988l-143 -367h-90zM348 444h922l-299 762q-30 73 -53.5 98t-57.5 25h-102q-34 0 -57.5 -25t-53.5 -98zM545 1692 q0 194 190 194h148q190 0 190 -194q0 -195 -190 -195h-148q-190 0 -190 195zM623 1692q0 -61 28.5 -89t89.5 -28h136q61 0 89.5 28t28.5 89t-28.5 88.5t-89.5 27.5h-136q-61 0 -89.5 -27.5t-28.5 -88.5z" />
<glyph unicode="&#xc6;" horiz-adv-x="2283" d="M82 0l489 1237q63 172 189 172h1349v-80h-915v-586h850v-77h-850v-359q0 -96 65.5 -161.5t161.5 -65.5h688v-80h-688q-127 0 -216 89.5t-89 217.5v359h-682l-260 -666h-92zM463 743h653v586h-356q-34 0 -59.5 -25.5t-53.5 -97.5z" />
<glyph unicode="&#xc7;" horiz-adv-x="1585" d="M205 438v533q0 181 128.5 309.5t309.5 128.5h778v-80h-778q-151 0 -256.5 -104.5t-105.5 -253.5v-533q0 -149 106 -253.5t256 -104.5h778v-80h-565v-84q223 0 223 -147v-31q0 -148 -192 -148h-240v78h234q120 0 120 76v16q0 37 -30 56.5t-84 19.5h-119v164h-125 q-181 0 -309.5 129t-128.5 309z" />
<glyph unicode="&#xc8;" horiz-adv-x="1624" d="M205 285v841q0 125 79 205t203 80h963v-80h-963q-95 0 -149.5 -54.5t-54.5 -150.5v-383h1101v-77h-1101v-381q0 -99 54 -152t150 -53h963v-80h-963q-125 0 -203.5 79.5t-78.5 205.5zM657 1806h82l131 -235h-82z" />
<glyph unicode="&#xc9;" horiz-adv-x="1624" d="M205 281q0 -124 78.5 -202.5t203.5 -78.5h963v80h-963q-95 0 -149.5 54t-54.5 151v381h1101v77h-1101v381q0 96 54.5 150.5t149.5 54.5h963v80h-963q-125 0 -203.5 -78.5t-78.5 -202.5v-847zM784 1571h82l131 235h-82z" />
<glyph unicode="&#xca;" horiz-adv-x="1624" d="M205 285v841q0 125 79 205t203 80h963v-80h-963q-95 0 -149.5 -54.5t-54.5 -150.5v-383h1101v-77h-1101v-381q0 -99 54 -152t150 -53h963v-80h-963q-125 0 -203.5 79.5t-78.5 205.5zM606 1526l170 291q17 30 51 30q35 0 52 -30l170 -291h-70l-152 258l-151 -258h-70z" />
<glyph unicode="&#xcb;" horiz-adv-x="1624" d="M205 285v843q0 124 78.5 202.5t203.5 78.5h963v-76h-963q-95 0 -149.5 -54.5t-54.5 -150.5v-385h1101v-77h-1101v-381q0 -99 54 -152t150 -53h963v-80h-963q-125 0 -203.5 79.5t-78.5 205.5zM569 1626v121h119v-121h-119zM969 1626v121h118v-121h-118z" />
<glyph unicode="&#xcc;" horiz-adv-x="546" d="M104 1806h82l131 -235h-84zM236 0v1409h75v-1409h-75z" />
<glyph unicode="&#xcd;" horiz-adv-x="546" d="M231 1571h84l129 235h-82zM236 0v1409h75v-1409h-75z" />
<glyph unicode="&#xce;" horiz-adv-x="546" d="M53 1526l170 291q17 30 51 30q35 0 52 -30l170 -291h-70l-152 258l-151 -258h-70zM236 0v1409h75v-1409h-75z" />
<glyph unicode="&#xcf;" horiz-adv-x="546" d="M14 1626v121h119v-121h-119zM233 0v1409h76v-1409h-76zM414 1626v121h118v-121h-118z" />
<glyph unicode="&#xd0;" horiz-adv-x="2004" d="M31 463l399 223v723h971q182 0 311 -128.5t129 -309.5v-533q0 -180 -129.5 -309t-310.5 -129h-971v610l-375 -213zM510 80h891q149 0 254.5 104.5t105.5 253.5v533q0 149 -105.5 253.5t-254.5 104.5h-891v-596l375 213l24 -65l-399 -224v-577z" />
<glyph unicode="&#xd1;" horiz-adv-x="1806" d="M215 0v1372q0 16 12.5 26.5t28.5 10.5q17 0 31 -14l1224 -1260v1274h80v-1372q0 -17 -10.5 -27t-24.5 -10q-18 0 -34 16l-1227 1256v-1272h-80zM535 1591l30 76q15 35 25 54.5t27.5 43.5t40.5 34.5t53 10.5h100q32 0 57.5 -17t36.5 -34t23 -43q29 -65 73 -65h62 q54 0 74 59l30 82h93l-31 -76q-15 -35 -25 -54.5t-27.5 -43.5t-40.5 -34.5t-53 -10.5h-100q-25 0 -44.5 8t-33.5 24.5t-21.5 28.5t-17.5 33q-30 66 -73 66h-62q-54 0 -74 -60l-30 -82h-92z" />
<glyph unicode="&#xd2;" horiz-adv-x="1908" d="M205 438v533q0 181 128.5 309.5t309.5 128.5h623q182 0 310 -128.5t128 -309.5v-533q0 -180 -128.5 -309t-309.5 -129h-623q-181 0 -309.5 129t-128.5 309zM281 438q0 -149 106 -253.5t256 -104.5h623q150 0 256 104.5t106 253.5v533q0 149 -105.5 253.5t-256.5 104.5 h-623q-151 0 -256.5 -104.5t-105.5 -253.5v-533zM786 1806h82l131 -235h-81z" />
<glyph unicode="&#xd3;" horiz-adv-x="1908" d="M205 438v533q0 181 128.5 309.5t309.5 128.5h623q182 0 310 -128.5t128 -309.5v-533q0 -180 -128.5 -309t-309.5 -129h-623q-181 0 -309.5 129t-128.5 309zM281 438q0 -149 106 -253.5t256 -104.5h623q150 0 256 104.5t106 253.5v533q0 149 -105.5 253.5t-256.5 104.5 h-623q-151 0 -256.5 -104.5t-105.5 -253.5v-533zM913 1571h82l131 235h-82z" />
<glyph unicode="&#xd4;" horiz-adv-x="1908" d="M205 438v533q0 181 128.5 309.5t309.5 128.5h623q182 0 310 -128.5t128 -309.5v-533q0 -180 -128.5 -309t-309.5 -129h-623q-181 0 -309.5 129t-128.5 309zM281 438q0 -149 106 -253.5t256 -104.5h623q150 0 256 104.5t106 253.5v533q0 149 -105.5 253.5t-256.5 104.5 h-623q-151 0 -256.5 -104.5t-105.5 -253.5v-533zM733 1532l170 291q17 30 51 30q35 0 52 -30l170 -291h-70l-152 258l-151 -258h-70z" />
<glyph unicode="&#xd5;" horiz-adv-x="1908" d="M205 438v533q0 181 128.5 309.5t309.5 128.5h623q182 0 310 -128.5t128 -309.5v-533q0 -180 -128.5 -309t-309.5 -129h-623q-181 0 -309.5 129t-128.5 309zM281 438q0 -149 106 -253.5t256 -104.5h623q150 0 256 104.5t106 253.5v533q0 149 -105.5 253.5t-256.5 104.5 h-623q-151 0 -256.5 -104.5t-105.5 -253.5v-533zM592 1591l31 76q15 36 24.5 55t27 43t40.5 34.5t53 10.5h100q32 0 57.5 -17t36.5 -34t23 -43q29 -65 74 -65h61q54 0 74 59l31 82h92l-31 -76q-15 -36 -24.5 -55t-27 -43t-40.5 -34.5t-53 -10.5h-101q-25 0 -44 8t-33 24.5 t-21.5 28.5t-17.5 33q-30 66 -74 66h-62q-53 0 -73 -60l-31 -82h-92z" />
<glyph unicode="&#xd6;" horiz-adv-x="1908" d="M205 438v533q0 181 128.5 309.5t309.5 128.5h623q182 0 310 -128.5t128 -309.5v-533q0 -180 -128.5 -309t-309.5 -129h-623q-181 0 -309.5 129t-128.5 309zM281 438q0 -149 106 -253.5t256 -104.5h623q150 0 256 104.5t106 253.5v533q0 149 -105.5 253.5t-256.5 104.5 h-623q-151 0 -256.5 -104.5t-105.5 -253.5v-533zM696 1624v121h119v-121h-119zM1094 1624v121h118v-121h-118z" />
<glyph unicode="&#xd7;" horiz-adv-x="954" d="M113 1049h106l258 -285l258 285h107l-314 -344l295 -328h-108l-238 264l-237 -264h-109l295 328z" />
<glyph unicode="&#xd8;" horiz-adv-x="1910" d="M205 438v533q0 181 128.5 309.5t309.5 128.5h625q157 0 280 -102l86 79l56 -57l-86 -80q102 -123 102 -278v-533q0 -180 -128.5 -309t-309.5 -129h-625q-158 0 -281 102l-86 -79l-55 57l86 80q-102 120 -102 278zM281 438q0 -130 81 -227l1129 1042q-99 76 -223 76h-625 q-151 0 -256.5 -104.5t-105.5 -253.5v-533zM420 156q95 -76 223 -76h625q150 0 256 104.5t106 253.5v533q0 129 -82 227z" />
<glyph unicode="&#xd9;" horiz-adv-x="1781" d="M184 438q0 -180 129 -309t312 -129h532q183 0 311.5 129t128.5 309v971h-79v-971q0 -149 -105.5 -253.5t-255.5 -104.5h-532q-150 0 -255.5 104.5t-105.5 253.5v971h-80v-971zM721 1806h82l131 -235h-82z" />
<glyph unicode="&#xda;" horiz-adv-x="1781" d="M184 438q0 -180 129 -309t312 -129h532q183 0 311.5 129t128.5 309v971h-79v-971q0 -149 -105.5 -253.5t-255.5 -104.5h-532q-150 0 -255.5 104.5t-105.5 253.5v971h-80v-971zM846 1571h82l131 235h-82z" />
<glyph unicode="&#xdb;" horiz-adv-x="1781" d="M184 438v971h80v-971q0 -149 105.5 -253.5t255.5 -104.5h532q150 0 255.5 104.5t105.5 253.5v971h79v-971q0 -180 -128.5 -309t-311.5 -129h-532q-183 0 -312 129t-129 309zM670 1526l170 291q17 30 51 30t51 -30l170 -291h-70l-151 258l-152 -258h-69z" />
<glyph unicode="&#xdc;" horiz-adv-x="1781" d="M184 438q0 -180 129 -309t312 -129h532q183 0 311.5 129t128.5 309v971h-79v-971q0 -149 -105.5 -253.5t-255.5 -104.5h-532q-150 0 -255.5 104.5t-105.5 253.5v971h-80v-971zM633 1624v121h119v-121h-119zM1030 1624v121h119v-121h-119z" />
<glyph unicode="&#xdd;" horiz-adv-x="1544" d="M31 1411l491 -706q48 -74 72 -105q25 -25 55 -43q35 -18 76 -18h8v-539h78v539h8q72 0 129 61q22 25 74 105l491 706h-90l-471 -672q-47 -71 -76 -96t-57 -25h-96h2q-28 0 -57 25t-76 96l-471 672h-90zM621 1810h81l132 -235h-82z" />
<glyph unicode="&#xde;" d="M215 0h78v350h895q127 0 216 89.5t89 217.5v271q0 126 -90 215.5t-215 89.5h-895v332h-78v-1565zM293 430v723h895q92 0 159.5 -67.5t67.5 -161.5v-267q0 -93 -68 -160t-159 -67h-895z" />
<glyph unicode="&#xdf;" horiz-adv-x="2670" d="M113 897v49q0 128 81 201.5t214 73.5h784v-80h-784q-101 0 -158 -49t-57 -146v-45q0 -43 15.5 -77t35.5 -53t52 -34t51.5 -20.5t47.5 -11.5l553 -117q275 -58 275 -264v-50q0 -128 -81 -201t-214 -73h-803v80h803q101 0 158 48.5t57 145.5v45q0 43 -16 76.5t-35.5 52 t-53 33.5t-50.5 20t-46 11l-555 119q-274 58 -274 266zM1448 897v49q0 128 81 201.5t214 73.5h784v-80h-784q-101 0 -158 -49t-57 -146v-45q0 -43 15.5 -77t36 -53t52.5 -34t51.5 -20.5t47.5 -11.5l553 -117q274 -58 274 -264v-50q0 -128 -81 -201t-214 -73h-803v80h803 q101 0 158 48.5t57 145.5v45q0 43 -16 76.5t-35.5 52t-53 33.5t-50.5 20t-46 11l-555 119q-274 58 -274 266z" />
<glyph unicode="&#xe0;" horiz-adv-x="1474" d="M82 0l418 1061q10 25 17 40.5t24.5 43.5t35.5 44.5t47 30t62 13.5h102q33 0 62 -13.5t47.5 -30t36 -44t24.5 -43.5t17 -41l418 -1061h-93l-126 322h-875l-125 -322h-92zM330 397h815l-248 631q-28 73 -52 99t-57 26h-102q-33 0 -56 -26t-52 -99zM575 1634h82l131 -235 h-81z" />
<glyph unicode="&#xe1;" horiz-adv-x="1474" d="M82 0l418 1061q10 25 17 40.5t24.5 43.5t35.5 44.5t47 30t62 13.5h102q33 0 62 -13.5t47.5 -30t36 -44t24.5 -43.5t17 -41l418 -1061h-93l-126 322h-875l-125 -322h-92zM330 397h815l-248 631q-28 73 -52 99t-57 26h-102q-33 0 -56 -26t-52 -99zM686 1399h82l131 235h-82 z" />
<glyph unicode="&#xe2;" horiz-adv-x="1474" d="M82 0l418 1061q10 25 17 40.5t24.5 43.5t35.5 44.5t47 30t62 13.5h102q33 0 62 -13.5t47.5 -30t36 -44t24.5 -43.5t17 -41l418 -1061h-93l-126 322h-875l-125 -322h-92zM330 397h815l-248 631q-28 73 -52 99t-57 26h-102q-33 0 -56 -26t-52 -99zM516 1354l170 291 q17 30 51 30t51 -30l170 -291h-69l-152 258l-151 -258h-70z" />
<glyph unicode="&#xe3;" horiz-adv-x="1474" d="M82 0l418 1061q10 25 17 40.5t24.5 43.5t35.5 44.5t47 30t62 13.5h102q33 0 62 -13.5t47.5 -30t36 -44t24.5 -43.5t17 -41l418 -1061h-93l-126 322h-875l-125 -322h-92zM330 397h815l-248 631q-28 73 -52 99t-57 26h-102q-33 0 -56 -26t-52 -99zM373 1415l30 76 q15 35 25 54.5t27.5 43.5t40.5 34.5t53 10.5h100q32 0 57.5 -17t36.5 -34t23 -43q29 -65 74 -65h61q54 0 74 59l31 82h92l-31 -76q-15 -36 -24.5 -55t-27 -43t-40.5 -34.5t-53 -10.5h-101q-25 0 -44 8t-33 24.5t-21.5 28.5t-17.5 33q-30 65 -74 65h-62q-53 0 -73 -59 l-31 -82h-92z" />
<glyph unicode="&#xe4;" horiz-adv-x="1474" d="M82 0l418 1061q10 25 17 40.5t24.5 43.5t35.5 44.5t47 30t62 13.5h102q33 0 62 -13.5t47.5 -30t36 -44t24.5 -43.5t17 -41l418 -1061h-93l-126 322h-875l-125 -322h-92zM330 397h815l-248 631q-28 73 -52 99t-57 26h-102q-33 0 -56 -26t-52 -99zM479 1456v121h119v-121 h-119zM877 1456v121h118v-121h-118z" />
<glyph unicode="&#xe5;" horiz-adv-x="1474" d="M82 0l418 1061q10 25 17 40.5t24.5 43.5t35.5 44.5t47 30t62 13.5h102q33 0 62 -13.5t47.5 -30t36 -44t24.5 -43.5t17 -41l418 -1061h-93l-126 322h-875l-125 -322h-92zM330 397h815l-248 631q-28 73 -52 99t-57 26h-102q-33 0 -56 -26t-52 -99zM473 1516q0 194 191 194 h147q190 0 190 -194q0 -195 -190 -195h-147q-191 0 -191 195zM551 1516q0 -61 29 -89t90 -28h135q61 0 90 28t29 89t-29 88.5t-90 27.5h-135q-61 0 -90 -27.5t-29 -88.5z" />
<glyph unicode="&#xe6;" horiz-adv-x="2111" d="M82 0l416 1061q10 24 17.5 40.5t25 44t35.5 44.5t47.5 30t62.5 13h1251v-80h-888v-498h823v-77h-823v-293q0 -99 55 -152t151 -53h682v-80h-682q-125 0 -203.5 79.5t-78.5 205.5v290h-576l-223 -575h-92zM424 653h549v500h-287q-35 0 -59 -25.5t-52 -99.5z" />
<glyph unicode="&#xe7;" horiz-adv-x="1495" d="M205 418v397q0 182 117.5 300t300.5 118h708v-80h-708q-152 0 -246 -93.5t-94 -244.5v-397q0 -151 94.5 -244.5t245.5 -93.5h708v-80h-532v-84q223 0 223 -147v-31q0 -148 -193 -148h-239v78h233q121 0 121 76v16q0 36 -30.5 56t-84.5 20h-118v164h-88q-183 0 -300.5 118 t-117.5 300z" />
<glyph unicode="&#xe8;" horiz-adv-x="1529" d="M205 285v663q0 125 79 205t203 80h869v-80h-869q-95 0 -149.5 -54.5t-54.5 -150.5v-293h1007v-77h-1007v-293q0 -99 54 -152t150 -53h869v-80h-869q-125 0 -203.5 79.5t-78.5 205.5zM612 1634h82l131 -235h-84z" />
<glyph unicode="&#xe9;" horiz-adv-x="1529" d="M205 285v663q0 125 79 205t203 80h869v-80h-869q-95 0 -149.5 -54.5t-54.5 -150.5v-293h1007v-77h-1007v-293q0 -99 54 -152t150 -53h869v-80h-869q-125 0 -203.5 79.5t-78.5 205.5zM739 1405h84l129 235h-82z" />
<glyph unicode="&#xea;" horiz-adv-x="1529" d="M205 285v663q0 125 79 205t203 80h869v-80h-869q-95 0 -149.5 -54.5t-54.5 -150.5v-293h1007v-77h-1007v-293q0 -99 54 -152t150 -53h869v-80h-869q-125 0 -203.5 79.5t-78.5 205.5zM559 1356l170 291q17 30 51 30t51 -30l170 -291h-69l-152 258l-151 -258h-70z" />
<glyph unicode="&#xeb;" horiz-adv-x="1529" d="M205 285v663q0 125 79 205t203 80h869v-80h-869q-95 0 -149.5 -54.5t-54.5 -150.5v-293h1007v-77h-1007v-293q0 -99 54 -152t150 -53h869v-80h-869q-125 0 -203.5 79.5t-78.5 205.5zM522 1454v121h119v-121h-119zM920 1454v121h118v-121h-118z" />
<glyph unicode="&#xec;" horiz-adv-x="546" d="M98 1636h82l131 -235h-84zM229 0v1233h76v-1233h-76z" />
<glyph unicode="&#xed;" horiz-adv-x="546" d="M236 1401h83l130 235h-82zM240 0v1233h75v-1233h-75z" />
<glyph unicode="&#xee;" horiz-adv-x="546" d="M55 1356l170 291q17 30 51 30q35 0 52 -30l170 -291h-70l-152 258l-151 -258h-70zM233 0v1233h78v-1233h-78z" />
<glyph unicode="&#xef;" horiz-adv-x="546" d="M14 1454v121h119v-121h-119zM233 0v1233h76v-1233h-76zM414 1454v121h118v-121h-118z" />
<glyph unicode="&#xf0;" horiz-adv-x="1871" d="M31 389l399 223v621h862q180 0 298 -118.5t118 -299.5v-397q0 -181 -118 -299.5t-298 -118.5h-862v539l-375 -215zM508 80h784q151 0 244.5 93.5t93.5 244.5v397q0 151 -93.5 244.5t-244.5 93.5h-784v-494l377 213l22 -65l-399 -223v-504z" />
<glyph unicode="&#xf1;" horiz-adv-x="1800" d="M215 0v1194q0 18 11.5 28.5t27.5 10.5t33 -14l1220 -1094v1108h78v-1196q0 -18 -9 -27.5t-22 -9.5q-20 0 -36 16l-1223 1078v-1094h-80zM537 1415l30 76q15 35 25 54.5t27.5 43.5t40.5 34.5t53 10.5h100q32 0 57.5 -17t36.5 -34t23 -43q29 -65 74 -65h61q54 0 74 59 l30 82h93l-31 -76q-15 -35 -25 -54.5t-27.5 -43.5t-40.5 -34.5t-53 -10.5h-100q-25 0 -44.5 8t-33.5 24.5t-21.5 28.5t-17.5 33q-30 65 -73 65h-62q-54 0 -74 -59l-30 -82h-92z" />
<glyph unicode="&#xf2;" horiz-adv-x="1810" d="M205 418q0 -182 117.5 -300t300.5 -118h565q183 0 300.5 118t117.5 300v397q0 182 -117.5 300t-300.5 118h-565q-183 0 -300.5 -118t-117.5 -300v-397zM283 418v397q0 151 94.5 244.5t245.5 93.5h565q151 0 245.5 -93.5t94.5 -244.5v-397q0 -151 -94.5 -244.5 t-245.5 -93.5h-565q-151 0 -245.5 93.5t-94.5 244.5zM737 1636h82l131 -235h-84z" />
<glyph unicode="&#xf3;" horiz-adv-x="1810" d="M205 418q0 -182 117.5 -300t300.5 -118h565q183 0 300.5 118t117.5 300v397q0 182 -117.5 300t-300.5 118h-565q-183 0 -300.5 -118t-117.5 -300v-397zM283 418v397q0 151 94.5 244.5t245.5 93.5h565q151 0 245.5 -93.5t94.5 -244.5v-397q0 -151 -94.5 -244.5 t-245.5 -93.5h-565q-151 0 -245.5 93.5t-94.5 244.5zM864 1401h84l129 235h-82z" />
<glyph unicode="&#xf4;" horiz-adv-x="1810" d="M205 418q0 -182 117.5 -300t300.5 -118h565q183 0 300.5 118t117.5 300v397q0 182 -117.5 300t-300.5 118h-565q-183 0 -300.5 -118t-117.5 -300v-397zM283 418v397q0 151 94.5 244.5t245.5 93.5h565q151 0 245.5 -93.5t94.5 -244.5v-397q0 -151 -94.5 -244.5 t-245.5 -93.5h-565q-151 0 -245.5 93.5t-94.5 244.5zM684 1356l170 291q17 30 51 30t51 -30l170 -291h-69l-152 258l-151 -258h-70z" />
<glyph unicode="&#xf5;" horiz-adv-x="1810" d="M205 418q0 -182 117.5 -300t300.5 -118h565q183 0 300.5 118t117.5 300v397q0 182 -117.5 300t-300.5 118h-565q-183 0 -300.5 -118t-117.5 -300v-397zM283 418v397q0 151 94.5 244.5t245.5 93.5h565q151 0 245.5 -93.5t94.5 -244.5v-397q0 -151 -94.5 -244.5 t-245.5 -93.5h-565q-151 0 -245.5 93.5t-94.5 244.5zM543 1415l30 76q15 35 25 54.5t27.5 43.5t40.5 34.5t53 10.5h100q32 0 57.5 -17t36.5 -34t23 -43q29 -65 74 -65h61q54 0 74 59l31 82h92l-31 -76q-15 -36 -24.5 -55t-27 -43t-40.5 -34.5t-53 -10.5h-101q-25 0 -44.5 8 t-33.5 24.5t-21.5 28.5t-17.5 33q-30 65 -73 65h-62q-53 0 -73 -59l-31 -82h-92z" />
<glyph unicode="&#xf6;" horiz-adv-x="1810" d="M205 418q0 -182 117.5 -300t300.5 -118h565q183 0 300.5 118t117.5 300v397q0 182 -117.5 300t-300.5 118h-565q-183 0 -300.5 -118t-117.5 -300v-397zM283 418v397q0 151 94.5 244.5t245.5 93.5h565q151 0 245.5 -93.5t94.5 -244.5v-397q0 -151 -94.5 -244.5 t-245.5 -93.5h-565q-151 0 -245.5 93.5t-94.5 244.5zM647 1454v121h119v-121h-119zM1044 1454v121h119v-121h-119z" />
<glyph unicode="&#xf7;" horiz-adv-x="946" d="M113 666v77h721v-77h-721zM410 1004v120h118v-120h-118zM412 246v121h118v-121h-118z" />
<glyph unicode="&#xf8;" horiz-adv-x="1810" d="M205 418v397q0 182 117.5 300t300.5 118h565q147 0 258 -84l70 65l55 -57l-66 -61q101 -119 101 -281v-397q0 -182 -117.5 -300t-300.5 -118h-565q-156 0 -265 86l-59 -55l-53 53l57 53q-98 115 -98 281zM283 418q0 -139 79 -230l1022 908q-82 57 -196 57h-565 q-151 0 -245.5 -93.5t-94.5 -244.5v-397zM420 139q83 -59 203 -59h565q151 0 244.5 93.5t93.5 244.5v397q0 136 -80 229z" />
<glyph unicode="&#xf9;" d="M184 418v815h76v-815q0 -151 94.5 -244.5t245.5 -93.5h406q151 0 245.5 93.5t94.5 244.5v815h75v-815q0 -182 -117 -300t-298 -118h-406q-181 0 -298.5 118t-117.5 300zM627 1636h82l131 -235h-84z" />
<glyph unicode="&#xfa;" d="M184 418v815h76v-815q0 -151 94.5 -244.5t245.5 -93.5h406q151 0 245.5 93.5t94.5 244.5v815h75v-815q0 -182 -117 -300t-298 -118h-406q-181 0 -298.5 118t-117.5 300zM743 1401h84l129 235h-82z" />
<glyph unicode="&#xfb;" d="M184 418v815h76v-815q0 -151 94.5 -244.5t245.5 -93.5h406q151 0 245.5 93.5t94.5 244.5v815h75v-815q0 -182 -117 -300t-298 -118h-406q-181 0 -298.5 118t-117.5 300zM582 1356l170 291q17 30 51 30t51 -30l170 -291h-70l-151 258l-152 -258h-69z" />
<glyph unicode="&#xfc;" d="M184 418v815h76v-815q0 -151 94.5 -244.5t245.5 -93.5h406q151 0 245.5 93.5t94.5 244.5v815h75v-815q0 -182 -117 -300t-298 -118h-406q-181 0 -298.5 118t-117.5 300zM543 1454v121h119v-121h-119zM942 1454v121h121v-121h-121z" />
<glyph unicode="&#xfd;" horiz-adv-x="1282" d="M31 1233l360 -635q1 -2 11.5 -19.5t14.5 -24t15.5 -23.5t19 -25.5t20.5 -22t25 -21t27.5 -15.5t32.5 -11.5t35 -3.5h10v-432h78v432h10q18 0 35 3.5t32.5 11.5t27.5 15.5t25 21t20.5 22t19 25.5t15.5 23.5t14.5 24t11.5 19.5l360 635h-90l-342 -600q-42 -72 -70 -96.5 t-59 -24.5h-98q-29 0 -58.5 25.5t-70.5 95.5l-342 600h-90zM588 1395h82l131 235h-82z" />
<glyph unicode="&#xfe;" horiz-adv-x="1515" d="M215 0v1532h78v-381h805q127 0 216 -89.5t89 -217.5v-139q0 -126 -90 -216t-215 -90h-805v-399h-78zM293 479h805q92 0 159.5 67.5t67.5 162.5v135q0 93 -68 160t-159 67h-805v-592z" />
<glyph unicode="&#xff;" horiz-adv-x="1282" d="M31 1233l360 -629q1 -2 11.5 -19.5t14.5 -24t15.5 -23.5t19 -25.5t20.5 -22t25 -21t27.5 -15.5t32.5 -11.5t35 -3.5h8v-438h80v438h10q18 0 35 3.5t32.5 11.5t27.5 15.5t25 21t20.5 22t19 25.5t15.5 23.5t14.5 24t11.5 19.5l360 629h-90l-342 -594q-42 -72 -70 -96.5 t-59 -24.5h-98q-29 0 -58.5 25.5t-70.5 95.5l-342 594h-90zM383 1454v121h119v-121h-119zM782 1454v121h119v-121h-119z" />
<glyph unicode="&#x152;" horiz-adv-x="2453" d="M205 438v533q0 181 128.5 309.5t309.5 128.5h416q135 0 262 -143q137 143 270 143h686v-80h-686q-95 0 -161 -66t-66 -161v-359h848v-77h-848v-228q0 -149 105.5 -253.5t254.5 -104.5h555v-80h-555q-107 0 -212.5 65t-188.5 177q-81 -112 -185.5 -177t-211.5 -65h-283 q-181 0 -309.5 129t-128.5 309zM283 438q0 -149 104.5 -253.5t255.5 -104.5h283q149 0 254.5 104.5t105.5 253.5v664q0 95 -66.5 161t-160.5 66h-416q-151 0 -255.5 -104.5t-104.5 -253.5v-533z" />
<glyph unicode="&#x153;" horiz-adv-x="2174" d="M205 418q0 -183 117 -300.5t299 -117.5h210q126 0 246 117q120 -117 242 -117h682v80h-682q-91 0 -150 53q-57 57 -57 135v310h823v77h-823v293q0 97 54.5 151t152.5 54h682v80h-682q-126 0 -248 -119q-119 119 -240 119h-210q-181 0 -298.5 -118t-117.5 -300v-397z M281 418v397q0 151 94.5 244.5t245.5 93.5h210q92 0 150 -55q55 -55 55 -135v-678q0 -99 -54 -152t-151 -53h-210q-151 0 -245.5 93.5t-94.5 244.5z" />
<glyph unicode="&#x178;" horiz-adv-x="1544" d="M31 1411l491 -706q48 -74 72 -105q25 -25 55 -43q35 -18 76 -18h8v-539h78v539h8q72 0 129 61q22 25 74 105l491 706h-90l-471 -672q-47 -71 -76 -96t-57 -25h-96h2q-28 0 -57 25t-76 96l-471 672h-90zM514 1636v121h119v-121h-119zM911 1636v121h119v-121h-119z" />
<glyph unicode="&#x2c6;" d="M582 1526l170 291q17 30 51 30t51 -30l170 -291h-70l-151 258l-152 -258h-69z" />
<glyph unicode="&#x2dc;" d="M440 1591l31 76q15 36 24.5 55t27 43t40.5 34.5t53 10.5h101q32 0 57.5 -17t36.5 -34t23 -43q29 -65 73 -65h62q53 0 73 59l31 82h92l-30 -76q-15 -35 -25 -54.5t-27.5 -43.5t-40.5 -34.5t-53 -10.5h-100q-25 0 -44.5 8t-33.5 24.5t-21.5 28.5t-17.5 33q-30 66 -74 66 h-61q-54 0 -74 -60l-31 -82h-92z" />
<glyph unicode="&#x2000;" horiz-adv-x="943" />
<glyph unicode="&#x2001;" horiz-adv-x="1886" />
<glyph unicode="&#x2002;" horiz-adv-x="943" />
<glyph unicode="&#x2003;" horiz-adv-x="1886" />
<glyph unicode="&#x2004;" horiz-adv-x="628" />
<glyph unicode="&#x2005;" horiz-adv-x="471" />
<glyph unicode="&#x2006;" horiz-adv-x="314" />
<glyph unicode="&#x2007;" horiz-adv-x="314" />
<glyph unicode="&#x2008;" horiz-adv-x="235" />
<glyph unicode="&#x2009;" horiz-adv-x="377" />
<glyph unicode="&#x200a;" horiz-adv-x="104" />
<glyph unicode="&#x2010;" horiz-adv-x="727" d="M113 666v77h501v-77h-501z" />
<glyph unicode="&#x2011;" horiz-adv-x="727" d="M113 666v77h501v-77h-501z" />
<glyph unicode="&#x2012;" horiz-adv-x="727" d="M113 666v77h501v-77h-501z" />
<glyph unicode="&#x2013;" horiz-adv-x="1126" d="M113 575v78h901v-78h-901z" />
<glyph unicode="&#x2014;" horiz-adv-x="1761" d="M113 575v78h1536v-78h-1536z" />
<glyph unicode="&#x2018;" horiz-adv-x="294" d="M43 1382q-3 12 2 19.5t14 7.5h52l122 -467h-75z" />
<glyph unicode="&#x2019;" horiz-adv-x="299" d="M61 942l109 414q4 22 24 37.5t42 15.5h22l-123 -467h-74z" />
<glyph unicode="&#x201a;" horiz-adv-x="299" d="M41 -293l123 467h74l-109 -414q-4 -22 -24 -37.5t-42 -15.5h-22z" />
<glyph unicode="&#x201c;" horiz-adv-x="591" d="M41 1409h76l112 -438q0 -9 -5 -18t-13 -9h-47zM342 1409h76l112 -438q0 -9 -5 -18t-13 -9h-47z" />
<glyph unicode="&#x201d;" horiz-adv-x="608" d="M61 942l109 414q4 22 24 37.5t42 15.5h22l-123 -467h-74zM371 942l108 414q4 22 24 37.5t42 15.5h22l-123 -467h-73z" />
<glyph unicode="&#x201e;" horiz-adv-x="608" d="M41 -293l123 467h74l-109 -414q-4 -22 -24 -37.5t-42 -15.5h-22zM350 -293l123 467h74l-109 -414q-4 -22 -23.5 -37.5t-41.5 -15.5h-23z" />
<glyph unicode="&#x2022;" horiz-adv-x="856" d="M205 586q0 -174 176 -174h94q176 0 176 174v37q0 174 -176 174h-94q-176 0 -176 -174v-37z" />
<glyph unicode="&#x2026;" horiz-adv-x="1830" d="M143 0v121h119v-121h-119zM864 0v121h119v-121h-119zM1569 0v121h119v-121h-119z" />
<glyph unicode="&#x202f;" horiz-adv-x="377" />
<glyph unicode="&#x2039;" horiz-adv-x="1812" d="M61 702q0 -12 21 -30l674 -672h108l-669 666h1495v77h-1495l669 666h-108l-674 -672q-21 -18 -21 -35z" />
<glyph unicode="&#x203a;" horiz-adv-x="1812" d="M123 666h1495l-670 -666h109l674 672q20 17 20 35q0 13 -20 30l-674 672h-109l670 -666h-1495v-77z" />
<glyph unicode="&#x205f;" horiz-adv-x="471" />
<glyph unicode="&#x20ac;" horiz-adv-x="1492" d="M164 498v80h168v256h-168v73h168v64q0 181 128 309.5t310 128.5h610l-22 -80h-588q-151 0 -256.5 -104.5t-105.5 -253.5v-64h833l-20 -73h-813v-256h743l-23 -80h-720v-60q0 -149 106 -253.5t256 -104.5h610v-80h-610q-181 0 -309.5 129t-128.5 309v60h-168z" />
<glyph unicode="&#x2122;" horiz-adv-x="1593" d="M102 1331v78h605v-78h-267v-534h-73v534h-265zM864 797v587q0 24 29.5 30t44.5 -21l240 -355l239 355q15 27 44.5 21t29.5 -30v-587h-72v469l-211 -312q-14 -18 -30 -18q-17 0 -31 18l-211 312v-469h-72z" />
<glyph unicode="&#x25fc;" horiz-adv-x="1228" d="M0 0v1229h1229v-1229h-1229z" />
<glyph unicode="&#xfb01;" horiz-adv-x="2007" d="M205 0v948q0 125 79 205t203 80h1285v-1233h-76v1153h-1209q-95 0 -149.5 -54.5t-54.5 -150.5v-295h1007v-78h-1007v-575h-78z" />
<glyph unicode="&#xfb02;" horiz-adv-x="2824" d="M205 0v948q0 125 79 205t203 80h1256v-995q0 -66 47 -112t113 -46h870v-80h-870q-99 0 -168.5 69.5t-69.5 168.5v915h-1178q-95 0 -149.5 -54.5t-54.5 -150.5v-295h1007v-78h-1007v-575h-78z" />
</font>
</defs>
</svg>
